#TITLE:Do You Know;
#SUBTITLE:The Ping Pong Song;
#ARTIST:Enrique Iglesias;
#TITLETRANSLIT:Do You Know;
#SUBTITLETRANSLIT:The Ping Pong Song;
#ARTISTTRANSLIT:Enrique Iglesias;
#CREDIT:;
#BANNER:Do You Know-bn.png;
#BACKGROUND:Do You Know-bg.png;
#LYRICSPATH:;
#CDTITLE:pm4cd.png;
#MUSIC:Do You Know.mp3;
#OFFSET:0.000;
#SAMPLESTART:14.650;
#SAMPLELENGTH:20.000;
#SELECTABLE:YES;
#BPMS:0.000=115.020;
#STOPS:;
#BGCHANGES:;
// cache tags:
#FIRSTBEAT:0.500;
#LASTBEAT:412.500;
#SONGFILENAME:Songs/Music V.I.P ^_^/Do You Know/Do You Know.sm;
#HASMUSIC:1;
#HASBANNER:1;
#MUSICLENGTH:221.518;
// end cache tags

//---------------dance-single - ----------------
#NOTES:
     dance-single:
     :
     Hard:
     10:
     1.000,1.000,1.000,0.262,0.436,905.000,525.000,58.000,0.000,301.000:
0000
0100
0000
0001
0010
0000
0000
1000
,
0000
0010
0000
1000
0100
0000
0000
0010
,
1000
0100
0020
0000
0000
0000
1000
0000
0001
0000
0000
0000
0000
0030
0100
0000
,
0000
0001
0000
0010
0100
0000
0000
2010
,
0000
0000
0100
0000
0000
0000
0010
0000
0001
3000
0000
0000
0000
0000
1002
0000
,
0000
0000
0010
0000
0000
0000
1000
0000
0010
0003
0000
0000
0000
0000
0010
0000
,
0000
0000
0210
0000
0000
0000
1000
0000
0010
0000
0000
0000
0000
0000
0010
0300
,
0100
0100
1011
0000
0000
0000
1100
0000
0011
0000
0000
0000
1001
0000
1001
0000
,
0000
0111
0000
0110
1001
0000
1010
1010
,
0000
1110
0000
0011
0110
0000
0110
0110
,
0000
0000
1101
0000
0100
0010
1001
0000
0010
0100
1001
0000
0110
0000
1001
0000
,
1001
1101
0000
1001
0011
0000
1001
1100
,
0001
1011
0000
0110
1010
0000
1100
1100
,
0000
0000
0111
0000
0000
0000
0110
0000
1100
0000
0000
0000
0011
0110
1100
1001
,
0000
0000
1011
0000
1000
0100
0011
0000
0001
0010
1100
0000
1001
0000
0011
0000
,
0110
1110
0001
1100
0011
1000
0011
0011
,
1000
1101
0010
1010
0101
0010
1001
1001
,
0100
1011
0001
0110
1100
0001
0110
0110
,
1000
0000
0101
0000
0010
0000
0101
0010
1001
0000
0010
0000
1100
0000
1100
0000
,
1100
0111
0100
1010
1100
0010
0101
0101
,
1000
0111
0001
1100
0110
0001
0101
0101
,
0010
0000
1101
0000
1000
0000
0011
0000
1001
0000
0100
0000
0011
1001
0011
0101
,
0000
1110
0001
1010
0101
1000
1001
1001
,
1001
0000
1101
0010
0001
0010
1001
0010
0101
0010
0100
1000
0110
0001
0110
1000
,
0100
1000
0111
1000
0100
0010
1001
0010
0101
0010
0100
1000
0101
0010
0101
0010
,
0100
0010
1101
0010
0100
1000
0101
1000
0110
1000
0100
0010
1100
0010
1100
0010
,
0001
0010
1101
0010
0001
0010
1100
0010
0101
0010
0001
0010
0101
0000
0101
0000
,
0101
0000
1101
0010
0100
0010
1001
0010
0101
0010
0100
0010
1001
0010
1001
0100
,
1000
0100
1011
0100
0010
0100
1001
0100
1010
0001
0010
0100
0011
0100
0011
0100
,
0010
0001
1110
0001
0010
0100
1001
0010
1100
0010
0100
0010
0101
1001
0101
1100
,
0001
0010
2100
0010
0001
0010
0100
0010
0100
0010
0001
0010
0101
0000
0101
0000
,
0101
3010
1102
0000
0000
0000
0110
0000
1010
0000
0000
0000
1100
0003
1100
0000
,
0001
0000
0211
0000
0000
0000
1010
0000
1001
0000
0000
0000
1010
0300
1010
0000
,
0100
0000
1120
0000
0000
0000
1100
0000
0101
0000
0000
0000
1001
0030
1001
0000
,
0100
0000
2011
0000
0001
0010
0101
0000
0100
0010
0101
0000
0011
0000
0011
3000
,
0011
0100
1021
0000
0000
0000
1001
0000
1100
0000
0000
0000
1100
0030
1100
0000
,
0010
0000
1201
0000
0000
0000
0011
0000
1010
0000
0000
0000
1010
0300
1010
0000
,
0100
0000
0112
0000
0000
0000
0110
0000
1100
0000
0000
0000
1010
1103
1010
1001
,
0000
0000
2110
0000
0001
0100
0011
0000
0010
0100
0011
0000
0110
3000
0110
0000
,
0110
0000
1001
0100
1000
0100
1000
0100
1000
0000
0101
0010
0001
0010
0001
0010
,
0001
0000
1100
0010
1000
0010
1000
0010
1000
0000
0110
0001
1000
0001
1000
0001
,
1000
0010
0102
0000
0000
0000
1000
0000
0100
0000
0000
0000
0010
0000
0100
0000
,
0003
2000
0200
3020
0302
2030
0203
3020
,
0302
0000
0000
0030
1113
0000
0000
0000
0000
0000
0000
0000
0011
0000
0000
0000
0110
0000
0000
0000
0000
0000
0000
0000
1001
0000
0000
0000
1001
0000
0000
0000
,
0000
1110
0000
0101
1010
0000
1001
1001
,
0000
0111
0000
1100
1001
0000
0110
0110
,
1000
0100
1011
0000
0000
0000
0101
0000
0110
0000
0000
0000
0011
0000
0011
0000
,
0011
1110
0000
1001
0110
0000
1100
1100
,
0000
1011
0000
1001
0011
0000
0101
0101
,
0000
0000
1011
0000
0000
0000
1100
0000
0011
0000
0000
0000
1100
0101
0011
0000
,
1010
1101
0000
0110
1001
0000
0110
0110
,
0110
0000
0001
0000
2110
0000
0001
0000
0010
0000
0001
0000
0110
0000
0001
0000
0110
0000
0001
0000
0010
0000
0100
0000
0011
0000
0100
0000
0011
0000
0100
3000
,
0010
0100
1012
0100
1000
0100
1010
0100
1010
0100
0010
0100
1010
0100
1010
0100
,
0013
0001
1210
0001
0010
1000
0011
1000
0011
1000
0010
0001
1010
0001
1010
0001
,
0310
0001
1120
0001
0100
0001
1100
0001
1100
0001
0100
1000
0101
0000
0101
0030
,
0101
0000
0010
0000
1102
0000
0010
0000
0100
0000
0010
0000
1100
0000
0010
0000
1100
0000
0010
0000
0100
0000
1000
0000
0110
0000
1000
0000
0110
0000
1000
0003
,
0100
0000
0010
0000
1201
0000
0010
0000
1000
0000
0010
0000
1001
0000
0010
0000
1001
0000
0010
0000
1000
0000
0010
0000
1001
0000
0010
0000
1001
0000
0010
0300
,
0001
0000
0010
0000
2101
0000
0010
0000
0001
0000
0010
0000
0101
0000
0010
0000
0101
0000
0010
0000
0001
0000
0010
0000
0101
0000
0011
0000
0110
0000
0101
3000
,
0010
0000
0100
0000
1012
0000
0100
0000
0010
0000
0100
0000
1010
0000
0100
0000
1010
0000
0100
0000
0010
0000
0100
0003
1001
0000
0000
0000
1001
0000
0000
0000
,
1001
0100
2011
0000
0001
0000
0110
0000
0101
0000
0010
0000
0011
0000
0011
0000
,
0001
3000
1210
0000
0010
0000
1001
0000
0011
0000
1000
0000
1010
0000
1010
0000
,
0001
0300
0121
0000
0100
0000
1001
0000
0101
0000
0001
0000
1100
0000
1001
0000
,
0100
0030
1102
0000
0100
0010
1100
0000
0100
1000
0110
0000
1010
0000
1010
0000
,
1010
0103
1021
0000
0100
0000
1100
0000
1001
0000
1000
0000
0101
0000
1100
0000
,
0001
0030
1210
0000
1000
0000
0011
0000
1001
0000
0010
0000
1010
0000
0011
0000
,
1000
0300
2011
0000
0100
0000
0101
0000
0110
0000
0001
0000
0101
0110
0101
0011
,
0000
3000
1021
0000
1000
0100
1001
0000
0100
1000
0101
0000
1001
0000
1001
0000
,
1001
0130
0011
0000
0000
0000
0100
0000
0011
0000
0000
0000
0000
0000
0010
0000
,
0000
0100
0000
0001
0110
0000
0000
0100
,
0000
0001
0000
1000
0101
0000
0000
0001
,
0000
0000
0100
0000
1001
0100
0010
0000
1001
0010
0100
0000
1001
0100
0010
0000
,
0001
0100
1011
0000
0100
0000
0110
0000
0101
0000
0010
0000
1100
0000
1100
0000
,
0001
1110
0100
0011
0110
1000
0101
0101
,
0010
1101
0010
0101
1010
0100
0011
0011
,
0100
0000
1011
0000
0001
0010
1100
0000
1000
0100
0011
0000
0101
0000
1001
0000
,
1100
0011
1202
0000
0010
0000
1010
0000
1010
0000
1000
0000
1010
0000
1010
0303
,
1010
0110
2002
0000
0100
0000
0110
0000
0110
0000
0010
0000
0110
0000
0110
3003
,
1001
0101
2210
0000
0001
0000
0011
0000
0011
0000
0010
0000
0011
0000
0011
3300
,
1010
1001
0122
0000
1000
0000
1100
0000
1100
0000
1000
0000
1100
0000
1100
0033
,
0100
0001
1110
0000
0101
0000
1110
0000
1101
0000
0011
0000
1110
0000
1101
0000
,
0011
0111
1100
1110
0111
0011
1101
1011
,
0110
0000
1110
0000
0011
0000
0111
0000
1110
0000
0101
0000
1011
1100
0111
1101
,
0000
0000
0111
0000
1000
0100
1011
0000
0001
0010
1101
0000
0110
1000
0111
0000
,
0110
0001
1110
0000
0101
0000
0111
0000
1101
0000
1001
0000
1101
0000
1011
0000
,
1100
0111
0110
1110
1011
1010
0111
1101
,
0011
0000
1101
0000
0110
0000
0111
0000
1011
0100
1001
0000
0111
1010
1101
0110
,
1001
0000
1101
0000
0101
0001
1011
0000
1001
1000
1101
0000
1001
0100
0111
0000
,
0101
0010
2110
0000
0011
0000
0111
0000
0111
0000
0101
0000
0111
0000
0111
0000
,
0011
3000
1201
0000
1010
0000
1011
0000
1011
0000
1001
0000
1011
0000
1011
0000
,
0011
0300
0121
0000
1100
0000
1101
0000
1101
0000
1001
0000
1101
0000
1101
0000
,
0101
0030
1102
0000
0110
0000
1110
0000
1110
0000
0110
0000
1110
0000
1110
0000
,
0110
1003
0211
0000
1010
0000
1011
0000
1011
0000
1001
0000
1011
0000
1011
0000
,
1010
0300
1102
0000
1010
0000
1110
0000
1110
0000
0110
0000
1110
0000
1110
0000
,
1100
0003
0121
0000
1100
0000
1101
0000
1101
0000
0101
0000
1101
0000
1101
0000
,
0101
0030
2110
0000
0101
0000
0111
0000
0111
0000
0011
0000
0111
0000
0111
0000
,
0111
3000
0210
0000
0000
0000
0001
0000
1000
0000
0000
0000
0010
0000
0301
0000
,
0000
2100
0000
0010
0001
0000
3010
0100
,
0000
0012
0000
1000
0010
0000
0000
1003
,
0000
0000
2000
0000
0100
0010
0001
0000
0100
0010
0001
0000
0100
0010
0001
0000
,
0010
3000
1111
0000
0000
0000
0011
0000
1100
0000
0000
0000
1011
0000
1011
0000
,
0000
1110
0000
0101
1010
0000
1011
1101
,
0000
1110
0000
1001
0110
0000
1110
1011
,
0000
0000
1111
0000
1001
0010
0101
0000
1010
0100
1001
0000
0101
0010
1100
0000
,
0011
0100
1010
0000
0000
0000
0000
0000
0000
0000
0000
0000
0000
0000
0000
0000
;

//---------------dance-single - ----------------
#NOTES:
     dance-single:
     :
     Medium:
     1:
     0.000,0.000,0.000,0.000,0.000,0.000,0.000,0.000,0.000,0.000:
0000
0000
0000
0000
;

//---------------dance-single - ----------------
#NOTES:
     dance-single:
     :
     Easy:
     1:
     0.000,0.000,0.000,0.000,0.000,0.000,0.000,0.000,0.000,0.000:
0000
0000
0000
0000
;
